Download Torrent Gangs Of Wasseypur 2

Posted onby
  1. Gangs Of Wasseypur Movie Download
  2. Gangs Of Wasseypur Full Movie Watch Online
  3. Download Torrent Gangs Of Wasseypur 2 Movie
Torrent
leechers: 30
Added on September 29, 2012 by Hon3yin Movies > Bollywood
Torrent verified.

  • Movie:Gangs of Wasseypur
  • IMDB:1954470
  • Detected quality: DVDRip
  • IMDB rating: 9.4 (381 votes)
  • RottenTomatoes: 100% 89%
  • Genres:Action, Drama, Crime
  • Cast:Manoj Bajpai, Tigmanshu Dhulia, Jameel Khan, Piyush Mishra, Yashpal Sharma, Reema Sen, Harish Khanna, Vipin Sharma, Nowaz, Mukesh Chhabra and others
  • Release date: May 22, 2012
  • Language: Hindi
Available in versions:1080p720pBDRipHDRiPDVDDVDRipScreenerTeleSyncCam

Gangs Of Wasseypur 2 2012 Hindi DvDrip 720p x264 ...Hon3y (Size: 907.92 MB)
Gangs Of Wasseypur 2 2012 Hindi DvDrip 720p x264 ...Hon3y.mkv897.07 MB
1 (6).png709.76 KB
1 (8).png678.73 KB
1 (4).png651.59 KB
1 (5).png641.62 KB
1 (2).png631.45 KB
1 (7).png598.55 KB
1 (1).png576 KB
1 (3).png517.15 KB
1 (9).png476.48 KB
Torrent downloaded from SilverTorrent.org.txt86 bytes
Torrent downloaded from AhaShare.com.txt59 bytes
sample.mkv5.5 MB
Torrent downloaded from extratorrent.com.txt59 bytes

Description


http://en.wikipedia.org/wiki/Gangs_of_Wasseypur_-_Part_2
Format : Matroska
Format version : Version 2
File size : 897 MiB
Duration : 2h 39mn
Overall bit rate : 784 Kbps
Video
ID : 1
Format : AVC
Format/Info : Advanced Video Codec
Format profile : [email protected]
Format settings, CABAC : Yes
Format settings, ReFrames : 4 frames
Muxing mode : Header stripping
Codec ID : V_MPEG4/ISO/AVC
Duration : 2h 39mn
Bit rate : 720 Kbps
Width : 1 280 pixels
Height : 544 pixels
Display aspect ratio : 2.40:1
Original display aspect ratio : 2.40:1
Frame rate : 23.976 fps
Color space : YUV
Chroma subsampling : 4:2:0
Bit depth : 8 bits
Scan type : Progressive
Bits/(Pixel*Frame) : 0.043
Stream size : 806 MiB (90%)
Audio
ID : 2
Format : AC-3
Bit rate mode : Constant
Bit rate : 64.0 Kbps
Channel(s) : 2 channels
Channel positions : Front: L R
Sampling rate : 32.0 KHz
Bit depth : 16 bits
Compression mode : Lossy
Stream size : 73.2 MiB (8%)
Check the Sample First

Related Torrents

torrent namesizeseedleech
Gangs of Wasseypur 2012 Hindi 720p DvDRip CharmeLeon Silver RGPosted by NimitMak in Movies > Bollywood
988.38 MB119
Gangs of Wasseypur 2012 Hindi DvDrip 720p x264...Hon3yPosted by Hon3y in Movies > Bollywood
2.67 GB96
Gangs of Wasseypur II 2012 Hindi 720p DvDRip CharmeLeon Silver RPosted by NimitMak in Movies
1 GB35
Gangs Of Wasseypur 2 [2012] Hindi DVDRip x264 E-SuB xRGPosted by j44n in Movies > Bollywood
910.9 MB54
Gangs Of Wasseypur 2 [2012] Hindi DVDRip x264 E-SuB xRGPosted by in Movies
910.9 MB013

Sharing Widget


Download torrent
seeders:66
Gangs Of Wasseypur 2 2012 Hindi DvDrip 720p x264 ...Hon3y

All Comments

Gangs Of Wasseypur Movie Download

leechers: 0
Added on August 6, 2012 by Samtapesin Movies > Bollywood
Torrent verified.

  • Movie:Gangs of Wasseypur
  • IMDB:1954470
  • Detected quality: DVDRip
  • IMDB rating: 9.4 (381 votes)
  • RottenTomatoes: 100% 89%
  • Genres:Action, Drama, Crime
  • Cast:Manoj Bajpai, Tigmanshu Dhulia, Jameel Khan, Piyush Mishra, Yashpal Sharma, Reema Sen, Harish Khanna, Vipin Sharma, Nowaz, Mukesh Chhabra and others
  • Release date: May 22, 2012
  • Language: Hindi
  • Subtitles: English
Available in versions:1080p720pBDRipHDRiPDVDDVDRipScreenerTeleSyncCam

Gangs Of Wasseypur (Size: 695.42 MB)
Torrent downloaded from Demonoid.me.txt46 bytes
Gangs Of Wasseypur - Uyirvani.com.srt122.93 KB
Gangs Of Wasseypur - Uyirvani.com.mkv695.29 MB
A Message from GuitarAbuse.txt480 bytes

Description


Movie Info: Gangs of Wasseypur Part-1 (stylized as Gangs of वासेपुर) is an Indian crime film co-written, produced and directed by Anurag Kashyap. The film centers around power struggles, politics and vengeance between three crime families. The film features an ensemble cast with Manoj Bajpai, Richa Chadda, Tigmanshu Dhulia in the major roles.

Related Torrents

torrent namesizeseedleech
Gangs of Wasseypur - DVDScr - XviD - DDRPosted by SaM in Movies > Bollywood
1.47 GB6349
Gangs of Wasseypur 2 (2012) 1CD DVDScr Rip XviD MP3 Team DST.aviPosted by D!D in Movies > Bollywood
691.78 MB1931
Gangs Of Wasseypur 2 2012 Hindi DvDrip 720p x264 ...Hon3yPosted by Hon3y in Movies > Bollywood
907.92 MB6630
Gangs Of Wasseypur 2 2012 Hindi BRRip 720p x264 AAC 5.1...Hon3yPosted by Hon3y in Movies > Bollywood
1.45 GB4128
Gangs Of Wasseypur 2012 Hindi BRRip 720p x264 AAC 5.1...Hon3yPosted by Hon3y in Movies > Bollywood
1.45 GB6333

Sharing Widget


Download torrent
seeders:0
Gangs Of Wasseypur

Screenshots


All Comments

Gangs Of Wasseypur Full Movie Watch Online

May 15, 2018 - Gangs Of Wasseypur 2 Hai Full Movie Download Kickass.

Download Torrent Gangs Of Wasseypur 2 Movie

  1. Buy Gangs Of Wasseypur 2 (English Subtitled): Read 9 Movies & TV Reviews - Amazon.com.
  2. Gangs of Wasseypur 2 (2012) Full Hindi Movie Download BRRip 720p IMDb Rating: 8.3/10 Genre: Action, Drama, Thriller Director: Anurag Kashyap Release Worldfree4u.trade All Quality And All Size Free Dual Audio 300Mb Movies Download.